IPB

Welcome Guest ( Log In | Register )

> Upload forum rules

- No over 30 sec clips of copyrighted music. Cite properly and never more than necessary for the discussion.


- No copyrighted software without permission.


- Click here for complete Hydrogenaudio Terms of Service

 
Reply to this topicStart new topic
Sample showing huge compression differences between TAK and FLAC
Dario
post Jun 25 2012, 11:38
Post #1





Group: Members
Posts: 158
Joined: 20-September 11
Member No.: 93842



Related thread: http://www.hydrogenaudio.org/forums/index....95670&st=50

CODE
AccurateRip verification results: Vāli - Forlatt

Track [ CRC ] Status
01 [5c39463f] (01/01) Accurately ripped as in pressing(s) #1
02 [675403b0] (01/01) Accurately ripped as in pressing(s) #1
03 [ff39b4b4] (01/01) Accurately ripped as in pressing(s) #1
04 [e08ea585] (01/01) Accurately ripped as in pressing(s) #1
05 [f340729d] (01/01) Accurately ripped as in pressing(s) #1
06 [9d16980f] (01/01) Accurately ripped as in pressing(s) #1
07 [91365c8a] (01/01) Accurately ripped as in pressing(s) #1
08 [0e596255] (01/01) Accurately ripped as in pressing(s) #1
09 [4d9f85d8] (01/01) Accurately ripped as in pressing(s) #1
10 [7ce0929b] (01/01) Accurately ripped as in pressing(s) #1

Track [ CRC32 ] [W/O NULL]
01 [38486135] [9EE02962]
02 [AFB6182F] [64BECC0A]
03 [93D2823E] [0F9B4B0B]
04 [A16872EA] [F4DF4EBD]
05 [A5D9BBDF] [574C3DE1]
06 [6311CDFA] [6FFC3980]
07 [43E64373] [8A04C46C]
08 [A3C7391D] [D92A0012]
09 [1AD6BB9A] [9DD79D16]
10 [5EEBB6E5] [BD133301]


This post has been edited by Dario: Jun 25 2012, 11:41
Attached File(s)
Attached File  3._Et_ensomt_minne.flac ( 1.98MB ) Number of downloads: 55
 
Go to the top of the page
+Quote Post

Reply to this topicStart new topic
1 User(s) are reading this topic (1 Guests and 0 Anonymous Users)
0 Members:

 



RSS Lo-Fi Version Time is now: 19th April 2014 - 11:57