IPB

Welcome Guest ( Log In | Register )

9 Pages V  « < 7 8 9  
Reply to this topicStart new topic
CUETools DB
greynol
post Nov 15 2013, 19:27
Post #201





Group: Super Moderator
Posts: 10000
Joined: 1-April 04
From: San Francisco
Member No.: 13167



I would hope that further development will go in the direction of calculating ARv2 hashes for alternate pressings using AR offset hashes when a match cannot be made against an ARv1 hash. This secondary step could be a user-configurable option.

New releases are likely only in the AR database with v2 hashes. AFAIK this means that pressings from new releases not yet in the AR database will only hit the CTDB if they are ripped with CUERipper or with EAC that is configured to use the CTDB plugin.

I'm not sure what kind of time Gregory has to spend on this, but I imagine it could be knocked-out in a couple of hours at most. It's definitely more consistent with core thrust of his development than metadata.

I suggest ebz777 solicit spoon and someone to develop a third-party plugin for EAC, or Andre Wiethoff to incorporate it into his current project, assuming he isn't interested in doing so with EAC. This would be more productive than necro-bumping this idea that was shot-down a year ago.

Anyone who wishes to discuss acoustic IDs further should create a new topic. All future replies on the matter will be binned as off-topic. If there is any confusion as to what is on-topic, please refer back to the post that started this discussion.

This post has been edited by greynol: Nov 15 2013, 21:10


--------------------
Your eyes cannot hear.
Go to the top of the page
+Quote Post
eleria
post Mar 10 2014, 18:19
Post #202





Group: Members
Posts: 10
Joined: 23-January 10
Member No.: 77439



Hi, I got this error while verifying a rip to CTDB :
[CTDB TOCID: 2dFsnKg1uTph6lYwvtHK_pLgfkM-] database access error: Il existe une erreur dans le document XML (1, 1)..

While AR gave a normal response :
CODE
[AccurateRip ID: 00021a0a-000701e7-17039603] found.
Track   [  CRC   |   V2   ] Status
01     [b90d2469|b0d7967a] (11+06/17) Accurately ripped
02     [0135d72a|e733738e] (11+06/17) Accurately ripped
03     [f3e7fcf9|c8267af8] (13+06/19) Accurately ripped

Track Peak [ CRC32  ] [W/O NULL]
--  100,0 [B2CFA3FF] [725B254F]          
01  100,0 [D0B0E04E] [13D6A5BA]          
02   97,8 [C18821AC] [48F1C053]          
03  100,0 [E53C98FB] [1A21F364]
Go to the top of the page
+Quote Post
sivadselim
post Mar 10 2014, 18:29
Post #203





Group: Members
Posts: 4
Joined: 25-August 08
Member No.: 57496



QUOTE (eleria @ Mar 10 2014, 11:19) *
Hi, I got this error while verifying a rip to CTDB :
[CTDB TOCID: 2dFsnKg1uTph6lYwvtHK_pLgfkM-] database access error: Il existe une erreur dans le document XML (1, 1)..

Yep, same, here.

"database access error: There is an error in XML document (1, 1).."
Go to the top of the page
+Quote Post
Gregory S. Chudo...
post Mar 10 2014, 18:35
Post #204





Group: Developer
Posts: 683
Joined: 2-October 08
From: Ottawa
Member No.: 59035



Thanks for letting me know, should be fixed now.


--------------------
CUETools 2.1.4
Go to the top of the page
+Quote Post
sivadselim
post Mar 10 2014, 18:41
Post #205





Group: Members
Posts: 4
Joined: 25-August 08
Member No.: 57496



QUOTE (Gregory S. Chudov @ Mar 10 2014, 11:35) *
Thanks for letting me know, should be fixed now.



Thank you for CUETools! smile.gif
Go to the top of the page
+Quote Post

9 Pages V  « < 7 8 9
Reply to this topicStart new topic
1 User(s) are reading this topic (1 Guests and 0 Anonymous Users)
0 Members:

 



RSS Lo-Fi Version Time is now: 23rd April 2014 - 11:04