IPB

Welcome Guest ( Log In | Register )

Embedding Cuesheet file into a FLAC file, A question...
adam917
post Jan 10 2004, 14:22
Post #1





Group: Members
Posts: 109
Joined: 7-January 04
From: North America
Member No.: 11013



Is it possible to embed a Cuesheet file (*.cue) inside a FLAC file after the FLAC file's creation? Here's the Cuesheet I want to embed:

CODE
PERFORMER Enigma
TITLE "MCMXC A.D."
FILE "Enigma - MCMXC A.D..wav" WAVE
 TRACK 01 AUDIO
   TITLE "The Voice of Enigma"
   PERFORMER Enigma
   INDEX 00 00:00:00
   INDEX 01 00:00:25
 TRACK 02 AUDIO
   TITLE "Principles of Lust: A. Sadeness, B. Find Love, C. Sadeness (Reprise)"
   PERFORMER Enigma
   INDEX 01 02:22:10
   INDEX 02 06:31:05
   INDEX 03 11:16:32
 TRACK 03 AUDIO
   TITLE "Callas Went Away"
   PERFORMER Enigma
   INDEX 01 14:06:05
 TRACK 04 AUDIO
   TITLE "Mea Culpa"
   PERFORMER Enigma
   INDEX 01 18:33:70
 TRACK 05 AUDIO
   TITLE "The Voice and the Snake"
   PERFORMER Enigma
   INDEX 01 23:37:27
 TRACK 06 AUDIO
   TITLE "Knocking on Forbidden Doors"
   PERFORMER Enigma
   INDEX 01 25:17:25
 TRACK 07 AUDIO
   TITLE "Back to the Rivers of Belief: A. Way to Eternity, B. Hallelujah, C. The River..."
   PERFORMER Enigma
   INDEX 01 29:48:62
   INDEX 02 32:09:65
   INDEX 03 36:15:25


How much of this information would be embedded into the FLAC file? I never usually embedd Cuesheets within media files because I want to keep the media file "clean" but, my Winamp 5.01 has a plugin called "MP3CUE", which reads Cuesheets embedded into MP3 files' ID3v2 tags. Since FLAC supports this natively, I was wondering if I could do the same with FLACs.

PS: The Cuesheet's pointing to a WAV. Will this matter? I have it pinting to the WAV because WAV is 100% supported by all software that uses Cuesheets for recording CDs via them or CD image.
Go to the top of the page
+Quote Post

Posts in this topic


Reply to this topicStart new topic
1 User(s) are reading this topic (1 Guests and 0 Anonymous Users)
0 Members:

 



RSS Lo-Fi Version Time is now: 24th April 2014 - 12:13