IPB

Welcome Guest ( Log In | Register )

Burning Compressed Cue Sheet, Burning Compressed Cue Sheet
ponchorage
post May 19 2004, 20:19
Post #1





Group: Members
Posts: 509
Joined: 26-February 04
From: S.F., Utah
Member No.: 12282



Is there a way to burn a compressed cue sheet? I get an error when trying to load the cue sheet in EAC:

Error in CUE sheet !
File type is not supported in line 3

Line 3 reads:

FILE "Vertical Horizon - Everything You Want.mpc" WAVE

I also tried to load the cue in Daemon Tools and I get a similar error. I know that I could just covert the mpc to a wave, but I'd rather skip that step if possible. I'd like to store my Cds as compressed mpc cue sheets with accompanying mpc files. If I ever need to burn a copy, I'd like to be able to do so directly from the cue.
Go to the top of the page
+Quote Post
 
Start new topic
Replies
dreamliner77
post Jul 15 2004, 21:25
Post #2





Group: Members
Posts: 2150
Joined: 29-June 02
From: Boston
Member No.: 2427



Are the decoders in your EAC folder?


--------------------
"You can fight without ever winning, but never win without a fight." Neil Peart 'Resist'
Go to the top of the page
+Quote Post
ponchorage
post Jul 16 2004, 18:27
Post #3





Group: Members
Posts: 509
Joined: 26-February 04
From: S.F., Utah
Member No.: 12282



QUOTE (dreamliner77 @ Jul 15 2004, 12:25 PM)
Are the decoders in your EAC folder?
*


Ok, I made sure I had mppdec.exe and flac.exe in my EAC folder. When I try to load the flac, EAC still gives me this error:

Error in CUE sheet!
File type is not supported in line 3

Line 3 says:

CODE
FILE "CDImage.flac" WAVE


So, I'm guessing EAC doesn't know how to decode a flac and burn.

However, when I load the cue for an MPC image, it seems to do some processing on the file. Execept then I get this error:

Error in CUE sheet!
INDEX position is behind end of FILE in line 7

Here is the CUE sheet where line 7 reads "INDEX 01 00:00:00":

CODE
PERFORMER "The White Stripes"
TITLE "Elephant"
FILE "CDImageMPC.mpc" WAVE
 TRACK 01 AUDIO
   TITLE "Seven Nation Army"
   PERFORMER "The White Stripes"
   INDEX 01 00:00:00
 TRACK 02 AUDIO
   TITLE "Black Math"
   PERFORMER "The White Stripes"
   INDEX 01 03:51:60
 TRACK 03 AUDIO
   TITLE "There's No Home For You Here"
   PERFORMER "The White Stripes"
   INDEX 01 06:55:52
 TRACK 04 AUDIO
   TITLE "I Just Don't Know What To Do With Myself"
   PERFORMER "The White Stripes"
   INDEX 01 10:39:25
 TRACK 05 AUDIO
   TITLE "In The Cold, Cold, Night"
   PERFORMER "The White Stripes"
   INDEX 01 13:25:62
 TRACK 06 AUDIO
   TITLE "I Want To Be The Boy To Warm Your Mother's Heart"
   PERFORMER "The White Stripes"
   INDEX 01 16:24:20
 TRACK 07 AUDIO
   TITLE "You've Got Her In Your Pocket"
   PERFORMER "The White Stripes"
   INDEX 01 19:44:60
 TRACK 08 AUDIO
   TITLE "Ball And Biscuit"
   PERFORMER "The White Stripes"
   INDEX 01 23:24:42
 TRACK 09 AUDIO
   TITLE "The Hardest Button To Button"
   PERFORMER "The White Stripes"
   INDEX 01 30:43:42
 TRACK 10 AUDIO
   TITLE "Little Acorns"
   PERFORMER "The White Stripes"
   INDEX 01 34:15:62
 TRACK 11 AUDIO
   TITLE "Hypnotize"
   PERFORMER "The White Stripes"
   INDEX 01 38:25:05
 TRACK 12 AUDIO
   TITLE "The Air Near My Fingers"
   PERFORMER "The White Stripes"
   INDEX 01 40:13:40
 TRACK 13 AUDIO
   TITLE "Girl, You Have No Faith In Medicine"
   PERFORMER "The White Stripes"
   INDEX 01 43:53:65
 TRACK 14 AUDIO
   TITLE "Well It's True That We Love One Another"
   PERFORMER "The White Stripes"
   INDEX 01 47:11:45


Anybody know what is going on here?
Go to the top of the page
+Quote Post

Posts in this topic


Closed TopicStart new topic
1 User(s) are reading this topic (1 Guests and 0 Anonymous Users)
0 Members:

 



RSS Lo-Fi Version Time is now: 19th April 2014 - 19:39