IPB

Welcome Guest ( Log In | Register )

Exact Audio Copy V1.0 beta 1
MrSinatra
post Nov 23 2010, 14:31
Post #1





Group: Members
Posts: 39
Joined: 11-June 10
Member No.: 81386



New EAC is out.

http://www.exactaudiocopy.de/en/index.php/...urces/download/
Go to the top of the page
+Quote Post
 
Start new topic
Replies
Brand
post Nov 24 2010, 17:09
Post #2





Group: Members
Posts: 312
Joined: 27-November 09
Member No.: 75355



There you go, old and new one:

CODE
Exact Audio Copy V0.99 prebeta 5 from 4. May 2009

EAC extraction logfile from 5. October 2010, 21:36

Miles Davis / Kind of Blue (1997 Remaster)

Used drive : TSSTcorpCDDVDW SH-S223C Adapter: 3 ID: 1

Read mode : Secure
Utilize accurate stream : Yes
Defeat audio cache : Yes
Make use of C2 pointers : No

Read offset correction : 697
Overread into Lead-In and Lead-Out : No
Fill up missing offset samples with silence : Yes
Delete leading and trailing silent blocks : No
Null samples used in CRC calculations : Yes
Used interface : Native Win32 interface for Win NT & 2000
Gap handling : Appended to previous track

Used output format : User Defined Encoder
Selected bitrate : 1024 kBit/s
Quality : High
Add ID3 tag : No
Command line compressor : C:\Program Files (x86)\Exact Audio Copy\FLAC\FLAC.EXE
Additional command line options : -8 -V -T "ARTIST=%a" -T "TITLE=%t" -T "ALBUM=%g" -T "DATE=%y" -T "TRACKNUMBER=%n" -T "GENRE=%m" -T "COMMENT=%e" %s -o %d


TOC of the extracted CD

Track | Start | Length | Start sector | End sector
---------------------------------------------------------
1 | 0:00.00 | 9:25.00 | 0 | 42374
2 | 9:25.00 | 9:49.05 | 42375 | 86554
3 | 19:14.05 | 5:37.42 | 86555 | 111871
4 | 24:51.47 | 11:35.58 | 111872 | 164054
5 | 36:27.30 | 9:26.10 | 164055 | 206514
6 | 45:53.40 | 9:31.65 | 206515 | 249404


Track 1

Filename E:\Miles Davis - 1959 - Kind of Blue (1997 Remaster) [FLAC]\01 - So What.wav

Pre-gap length 0:00:02.00

Peak level 94.4 %
Track quality 100.0 %
Copy CRC 33D07D6F
Accurately ripped (confidence 200) [BF9E60B7]
Copy OK

Track 2

Filename E:\Miles Davis - 1959 - Kind of Blue (1997 Remaster) [FLAC]\02 - Freddie Freeloader.wav

Pre-gap length 0:00:02.45

Peak level 94.4 %
Track quality 99.9 %
Copy CRC 75392A2B
Accurately ripped (confidence 200) [002094C4]
Copy OK

Track 3

Filename E:\Miles Davis - 1959 - Kind of Blue (1997 Remaster) [FLAC]\03 - Blue in Green.wav

Pre-gap length 0:00:02.43

Peak level 89.8 %
Track quality 100.0 %
Copy CRC E1F23CF0
Accurately ripped (confidence 200) [93B6B811]
Copy OK

Track 4

Filename E:\Miles Davis - 1959 - Kind of Blue (1997 Remaster) [FLAC]\04 - All Blues.wav

Pre-gap length 0:00:00.30

Peak level 94.4 %
Track quality 100.0 %
Copy CRC ED3A457F
Accurately ripped (confidence 200) [A7F414E2]
Copy OK

Track 5

Filename E:\Miles Davis - 1959 - Kind of Blue (1997 Remaster) [FLAC]\05 - Flamenco Sketches.wav

Pre-gap length 0:00:02.60

Peak level 94.4 %
Track quality 99.9 %
Copy CRC 1AF426CC
Accurately ripped (confidence 200) [43D67A72]
Copy OK

Track 6

Filename E:\Miles Davis - 1959 - Kind of Blue (1997 Remaster) [FLAC]\06 - Flamenco Sketches (Alternate Take).wav

Pre-gap length 0:00:00.05

Peak level 94.4 %
Track quality 100.0 %
Copy CRC BECFF81F
Accurately ripped (confidence 200) [27325B41]
Copy OK


All tracks accurately ripped

No errors occurred

End of status report


CODE
Exact Audio Copy V1.0 beta 1 from 15. November 2010

EAC extraction logfile from 24. November 2010, 13:36

Miles Davis / Kind of Blue (1997 Remaster)

Used drive : TSSTcorpCDDVDW SH-S223C Adapter: 3 ID: 1

Read mode : Secure
Utilize accurate stream : Yes
Defeat audio cache : Yes
Make use of C2 pointers : No

Read offset correction : 697
Overread into Lead-In and Lead-Out : No
Fill up missing offset samples with silence : Yes
Delete leading and trailing silent blocks : No
Null samples used in CRC calculations : Yes
Used interface : Native Win32 interface for Win NT & 2000
Gap handling : Appended to previous track

Used output format : User Defined Encoder
Selected bitrate : 768 kBit/s
Quality : High
Add ID3 tag : No
Command line compressor : C:\Program Files (x86)\Exact Audio Copy\FLAC\FLAC.EXE
Additional command line options : -8 -V -T "ARTIST=%a" -T "TITLE=%t" -T "ALBUM=%g" -T "DATE=%y" -T "TRACKNUMBER=%n" -T "GENRE=%m" -T "COMMENT=%e" %j--picture="%i"%j %s -o %d


TOC of the extracted CD

Track | Start | Length | Start sector | End sector
---------------------------------------------------------
1 | 0:00.00 | 9:25.00 | 0 | 42374
2 | 9:25.00 | 9:49.05 | 42375 | 86554
3 | 19:14.05 | 5:37.42 | 86555 | 111871
4 | 24:51.47 | 11:35.58 | 111872 | 164054
5 | 36:27.30 | 9:26.10 | 164055 | 206514
6 | 45:53.40 | 9:31.65 | 206515 | 249404


Track 1

Filename E:\Miles Davis - 1959 - Kind of Blue (1997 Remaster) [FLAC]\01 - So What.wav

Pre-gap length 0:00:02.00

Peak level 94.4 %
Extraction speed 2.3 X
Track quality 100.0 %
Copy CRC 33D07D6F
Accurately ripped (confidence 6) [BF9E60B7]
Copy OK

Track 2

Filename E:\Miles Davis - 1959 - Kind of Blue (1997 Remaster) [FLAC]\02 - Freddie Freeloader.wav

Pre-gap length 0:00:02.45

Peak level 94.4 %
Extraction speed 2.1 X
Track quality 99.9 %
Copy CRC 75392A2B
Accurately ripped (confidence 6) [002094C4]
Copy OK

Track 3

Filename E:\Miles Davis - 1959 - Kind of Blue (1997 Remaster) [FLAC]\03 - Blue in Green.wav

Pre-gap length 0:00:02.43

Peak level 89.8 %
Extraction speed 2.2 X
Track quality 100.0 %
Copy CRC E1F23CF0
Accurately ripped (confidence 6) [93B6B811]
Copy OK

Track 4

Filename E:\Miles Davis - 1959 - Kind of Blue (1997 Remaster) [FLAC]\04 - All Blues.wav

Pre-gap length 0:00:00.30

Peak level 94.4 %
Extraction speed 2.3 X
Track quality 100.0 %
Copy CRC ED3A457F
Accurately ripped (confidence 6) [A7F414E2]
Copy OK

Track 5

Filename E:\Miles Davis - 1959 - Kind of Blue (1997 Remaster) [FLAC]\05 - Flamenco Sketches.wav

Pre-gap length 0:00:02.60

Peak level 94.4 %
Extraction speed 2.1 X
Track quality 99.9 %
Copy CRC 1AF426CC
Accurately ripped (confidence 5) [43D67A72]
Copy OK

Track 6

Filename E:\Miles Davis - 1959 - Kind of Blue (1997 Remaster) [FLAC]\06 - Flamenco Sketches (Alternate Take).wav

Pre-gap length 0:00:00.05

Peak level 94.4 %
Extraction speed 2.3 X
Track quality 100.0 %
Copy CRC BECFF81F
Accurately ripped (confidence 6) [27325B41]
Copy OK


All tracks accurately ripped

No errors occurred

End of status report

==== Log checksum 508E1F35E1266DAA435F908F2DC1D9FA37509DD38146ED590977D962552483D2 ====


The checksums for tracks are the same.

This post has been edited by Synthetic Soul: Nov 24 2010, 17:21
Go to the top of the page
+Quote Post

Posts in this topic
- MrSinatra   Exact Audio Copy V1.0 beta 1   Nov 23 2010, 14:31
- - Jan S.   Changelog Finally here is the new version 1.0 beta...   Nov 23 2010, 14:44
- - MrSinatra   more info: http://forums.slimdevices.com/showthre...   Nov 23 2010, 15:08
- - romor   Checked briefly and it looks same to me (of course...   Nov 23 2010, 16:26
|- - GeSomeone   QUOTE (romor @ Nov 23 2010, 17:26) don...   Nov 23 2010, 17:43
- - spoon   > AccurateRip v2 support I believe this is sup...   Nov 23 2010, 16:33
- - Xenion   everything i hoped for so long is not implemented....   Nov 23 2010, 16:48
- - Wombat   QUOTE (MrSinatra @ Nov 23 2010, 16:08) mo...   Nov 23 2010, 19:17
|- - MrSinatra   QUOTE (Wombat @ Nov 23 2010, 13:17) Durin...   Nov 23 2010, 19:56
- - Wombat   QUOTE (MrSinatra @ Nov 23 2010, 20:56) QU...   Nov 23 2010, 20:09
- - Wombat   I found why. My fault, sorry. If i choose "O...   Nov 23 2010, 20:36
- - Eli   nice to see. I'll have to give it a try as its...   Nov 23 2010, 22:05
- - A_Man_Eating_Duck   QUOTE (Wombat @ Nov 24 2010, 08:36) I fou...   Nov 24 2010, 07:56
|- - Wombat   QUOTE (A_Man_Eating_Duck @ Nov 24 2010, 08...   Nov 24 2010, 15:41
- - Brand   I get much lower AR confidence with the new versio...   Nov 24 2010, 14:22
|- - Eli   QUOTE (Brand @ Nov 24 2010, 08:22) I get ...   Nov 24 2010, 16:54
- - Brand   There you go, old and new one: CODEExact Audio Co...   Nov 24 2010, 17:09
- - SlowPulse   If AR2 is present in the database, new EAC will re...   Nov 24 2010, 18:31
- - greynol   Unless there is some other bug, it appears as if t...   Nov 24 2010, 18:36
- - spoon   Andre needs to indicate which CRC it is showing, a...   Nov 24 2010, 22:36
- - Cron   On Windows 7 (64-bit) opening a file dialog inside...   Nov 25 2010, 00:05
|- - Domain   QUOTE (Cron @ Nov 24 2010, 15:05) On Wind...   Dec 2 2010, 04:18
- - audioaficionado   Nice! I'll have to try this one soon. I h...   Dec 3 2010, 05:37
- - greynol   You can safely have both 1.0 and a previous versio...   Dec 3 2010, 07:28
- - audioaficionado   Hopefully because when I was using the last two .9...   Dec 6 2010, 16:03
- - greynol   LOL. I have a batch script that maintains entries...   Dec 6 2010, 20:21
- - punkrockdude   I can't rip or do any stuff with the new EAC. ...   Dec 12 2010, 13:46
|- - Agent69   QUOTE (punkrockdude @ Dec 12 2010, 07:46)...   Dec 15 2010, 21:11
- - greynol   If you haven't, you should try the official fo...   Dec 15 2010, 21:55
- - audioaficionado   I fresh installed v1.0 and set it up from scratch....   Dec 16 2010, 05:12
- - Remedial Sound   Can anyone hazard a guess as to why, even though I...   Jan 12 2011, 05:12
|- - trout   QUOTE (Remedial Sound @ Jan 11 2011, 23:1...   Jan 12 2011, 06:42
- - Remedial Sound   Thanks, that did the trick   Jan 12 2011, 15:55
- - drattz   no zip file?   Jan 27 2011, 19:41
- - Alexxander   Unpack the installable .exe file with 7zip   Jan 27 2011, 20:05
|- - drattz   QUOTE (Alexxander @ Jan 27 2011, 20:05) U...   Jan 27 2011, 20:17
- - MrSinatra   v1 beta2 is now out: http://www.exactaudiocopy.de...   May 25 2011, 10:19


Reply to this topicStart new topic
1 User(s) are reading this topic (1 Guests and 0 Anonymous Users)
0 Members:

 



RSS Lo-Fi Version Time is now: 19th April 2014 - 08:09